<?xml version="1.0" standalone="no"?>
<!DOCTYPE svg PUBLIC "-//W3C//DTD SVG 1.1//EN" "http://www.w3.org/Graphics/SVG/1.1/DTD/svg11.dtd">
<svg xmlns="http://www.w3.org/2000/svg">
<metadata>Copyright (C) 2019 by original authors @ fontello.com</metadata>
<defs>
<font id="fontello" horiz-adv-x="1000" >
<font-face font-family="fontello" font-weight="400" font-stretch="normal" units-per-em="1000" ascent="850" descent="-150" />
<missing-glyph horiz-adv-x="1000" />
<glyph glyph-name="location" unicode="&#xe800;" d="M0 475q0 156 109 266t266 109 266-109 109-266q0-78-28-160t-85-166-101-141-110-133q-20-25-49-25l-4 0q-29 0-49 25-66 77-110 133t-101 141-85 166-28 160z m63 0q0-72 28-150t85-161 95-128 100-120l2 0q2-2 2-4l4 4q62 73 100 120t94 128 86 161 29 150q0 129-92 221t-221 91-221-91-91-221z m125 8q0 78 54 133t133 54 133-54 55-133-55-133-133-55-133 55-54 133z m31 0q0-65 46-111t110-45 110 45 46 111-46 110-110 46-110-46-46-110z" horiz-adv-x="750" />

<glyph glyph-name="calendar" unicode="&#xe801;" d="M0-66l0 738q0 35 24 60t60 24l135 0 0 63q0 13 9 22t22 9 22-9 9-22l0-63 188 0 0 63q0 13 9 22t22 9 22-9 9-22l0-63 188 0 0 63q0 13 9 22t22 9 22-9 9-22l0-63 135 0q35 0 60-24t24-60l0-738q0-35-24-60t-60-24l-832 0q-35 0-60 24t-24 60z m63 0q0-10 5-16t16-6l832 0q10 0 16 6t5 16l0 738q0 10-5 16t-16 6l-135 0 0-63q0-13-9-22t-22-9-22 9-9 22l0 63-188 0 0-63q0-13-9-22t-22-9-22 9-9 22l0 63-188 0 0-63q0-13-9-22t-22-9-22 9-9 22l0 63-135 0q-10 0-16-6t-5-16l0-738z m156 135l0 94 125 0 0-94-125 0z m0 156l0 94 125 0 0-94-125 0z m0 156l0 94 125 0 0-94-125 0z m219-312l0 94 125 0 0-94-125 0z m0 156l0 94 125 0 0-94-125 0z m0 156l0 94 125 0 0-94-125 0z m218-312l0 94 125 0 0-94-125 0z m0 156l0 94 125 0 0-94-125 0z m0 156l0 94 125 0 0-94-125 0z" horiz-adv-x="1000" />

<glyph glyph-name="user" unicode="&#xe802;" d="M4-105q-14 43 25 70 119 78 291 116-84 105-119 255-10 55-11 122t23 149 66 138q84 105 223 105t222-105q43-57 67-138t22-149-11-122q-35-150-119-255 172-38 291-116 39-27 26-71t-61-44l-875 0q-21 0-38 13t-22 32z m60 17l875 0q-109 73-267 108l-79 16q-45-30-91-30t-92 30l-78-16q-160-35-268-108z m193 602q-13-103 16-208t96-186l10-14q56-65 123-65t123 65l9 14q67 82 96 186t16 208q-14 113-76 193t-168 80-168-80-77-193z" horiz-adv-x="1003" />

<glyph glyph-name="noun_door_2593377" unicode="&#xe803;" d="M194 766v-1-630-1l6 1h406v630h-406l-6 1z m400-14v-604h-313l272 42v520l-272 42h313z m-388-1l334-52v-498l-334-52v602z m294-276c-13 0-25-11-25-25s12-25 25-25 26 11 26 25-12 25-26 25z m0-38c-7 0-12 6-12 13 0 7 5 13 12 13 7 0 13-6 13-13 0-7-6-13-13-13z" horiz-adv-x="800" />

<glyph glyph-name="noun_category_2426193" unicode="&#xe804;" d="M52 815c-16 0-29-13-29-29v-138c0-16 13-29 29-29h137c16 0 30 13 30 29v138c0 16-14 29-30 29h-137z m248 0c-16 0-30-13-30-29v-138c0-16 14-29 30-29h454c16 0 30 13 30 29v138c0 16-14 29-30 29h-454z m-248-20h137c6 0 10-4 10-9v-138c0-5-4-9-10-9h-137c-5 0-9 4-9 9v138c0 5 4 9 9 9z m248 0h454c6 0 10-4 10-9v-138c0-5-4-9-10-9h-454c-6 0-10 4-10 9v138c0 5 4 9 10 9z m-248-244c-16 0-29-13-29-29v-138c0-16 13-29 29-29h137c16 0 30 13 30 29v138c0 16-14 29-30 29h-137z m248 0c-16 0-30-13-30-29v-138c0-16 14-29 30-29h454c16 0 30 13 30 29v138c0 16-14 29-30 29h-454z m-248-20h137c6 0 10-4 10-9v-138c0-5-4-9-10-9h-137c-5 0-9 4-9 9v138c0 5 4 9 9 9z m248 0h454c6 0 10-4 10-9v-138c0-5-4-9-10-9h-454c-6 0-10 4-10 9v138c0 5 4 9 10 9z m-248-244c-16 0-29-13-29-29v-138c0-16 13-29 29-29h137c16 0 30 13 30 29v138c0 16-14 29-30 29h-137z m248 0c-16 0-30-13-30-29v-138c0-16 14-29 30-29h454c16 0 30 13 30 29v138c0 16-14 29-30 29h-454z m-248-20h137c6 0 10-4 10-9v-138c0-5-4-9-10-9h-137c-5 0-9 4-9 9v138c0 5 4 9 9 9z m248 0h454c6 0 10-4 10-9v-138c0-5-4-9-10-9h-454c-6 0-10 4-10 9v138c0 5 4 9 10 9z" horiz-adv-x="800" />

<glyph glyph-name="noun_bed_451739" unicode="&#xe805;" d="M694 688h-588c-24 0-43-20-43-44v-425c0-7 5-13 12-13h75c7 0 13 6 13 13v62h475v-62c0-7 5-13 12-13h75c7 0 13 6 13 13v425c0 24-20 44-44 44z m-588-25h588c10 0 19-9 19-19v-167c-6 3-12 4-19 4h-31v57c0 24-20 43-44 43h-138c-24 0-43-19-43-43v-57h-75v57c0 24-20 43-44 43h-138c-24 0-43-19-43-43v-57h-32c-6 0-13-1-18-4v167c0 10 8 19 18 19z m357-182v57c0 10 8 18 18 18h138c10 0 19-8 19-18v-57h-175z m-300 0v57c0 10 8 18 18 18h138c10 0 19-8 19-18v-57h-175z m550-250h-50v63c0 7-6 12-13 12h-500c-7 0-12-5-12-12v-63h-50v207c0 10 8 18 18 18h588c10 0 19-8 19-18v-207z m-88 157h-450c-7 0-12-6-12-13s5-12 12-12h450c7 0 13 5 13 12s-6 13-13 13z" horiz-adv-x="800" />

<glyph glyph-name="noun_bed_2599773" unicode="&#xe806;" d="M638 455v158c0 5-4 10-9 11l-33 11c-53 18-111 28-168 28h-57c-57 0-113-9-168-28l-33-11c-4-1-7-6-7-11v-158c-58-19-100-74-100-137v-93c0-7 5-12 12-12h38v-63c0-7 5-12 12-12h50c8 0 13 5 13 12v63h425v-63c0-7 5-12 12-12h50c8 0 13 5 13 12v63h37c8 0 13 5 13 12v93c0 63-43 118-100 137z m-450 8v141l23 7c52 18 107 27 160 27h57c55 0 108-9 160-27l23-7v-141h-20-6c-6 35-36 62-74 62h-25c-37 0-67-27-73-62h-28c-6 35-36 62-74 62h-25c-37 0-67-27-73-62h-7-18z m373 0h-121c5 21 25 37 49 37h25c22 0 41-16 47-37z m-200 0h-121c5 21 25 37 49 37h25c22 0 41-16 47-37z m-198-300h-25v50h25v-50z m500 0h-25v50h25v-50z m50 75h-38-50-450-50-37v80c0 66 53 120 120 120h17 150 50 150 18c66 0 120-54 120-120v-80z" horiz-adv-x="800" />

<glyph glyph-name="noun_home_2600449" unicode="&#xe807;" d="M48 499c-33-20-66 27-33 51l443 294c9 9 21 6 33 0l444-294c33-24 0-71-33-51l-429 285-425-285z m99 24c0 39 60 39 60 0l0-413 153 0 0 192c0 18 12 30 30 30l170 0c15 0 30-12 30-30l0-192 150 0 0 413c0 39 60 39 60 0l0-443c0-15-12-30-30-30-198 0-395 0-590 0-18 0-33 12-33 30l0 443z m273-413l110 0 0 162-110 0 0-162z" horiz-adv-x="947" />

<glyph glyph-name="noun_lock_308646" unicode="&#xe808;" d="M655 542h-79v132c0 97-79 176-176 176-97 0-176-79-176-176v-132h-79c-20 0-37-17-37-38v-417c0-20 17-37 37-37h510c20 0 37 17 37 37v417c0 21-17 38-37 38z m-403 132c0 81 66 148 148 148s148-67 148-148v-132h-296v132z m412-596h-528v435h528v-435z m-327 193l3-3 0-32c0-35 27-62 60-62s61 27 61 61v33l2 3c3 4 6 8 9 13 8 12 12 27 12 42 0 46-38 84-84 84-46 0-84-38-84-84 0-15 4-30 12-42 3-5 6-9 9-13z m63 110c31 0 55-24 55-55 0-18-8-35-23-45l0-46c0-18-14-32-32-32s-32 14-32 32v46c-14 10-23 27-23 45 0 31 25 55 55 55z" horiz-adv-x="800" />

<glyph glyph-name="noun_plus_2048207" unicode="&#xe809;" d="M400 650c-9 0-16-7-16-16l0-168-168 0c-9 0-16-7-16-16 0-9 7-16 16-16l168 0 0-168c0-9 7-16 16-16 9 0 16 7 16 16l0 168 168 0c9 0 16 7 16 16 0 9-7 16-16 16l-168 0 0 168c0 9-7 16-16 16z" horiz-adv-x="800" />

<glyph glyph-name="noun_bath_1828222-(1)" unicode="&#xe80a;" d="M782 439v61c0 16-13 28-29 28h-579v120c0 16 13 29 29 29s29-13 29-29c0-15 13-28 28-28s28 13 28 28c0 47-38 86-85 86s-85-39-85-86v-120h-71c-16 0-28-12-28-28v-61c0-83 57-154 135-173v-9c0-50 41-91 91-91h302c50 0 90 41 90 91v7c82 16 145 89 145 175z m-235-216h-302c-19 0-35 15-35 34v3h371v-3c0-19-15-34-34-34z m178 216c0-67-55-123-123-123h-404c-68 0-123 56-123 123v33h650v-33z" horiz-adv-x="800" />

<glyph glyph-name="noun_room_2437037" unicode="&#xe80b;" d="M375 463h-25v25a13 13 0 0 1-12 12h-50a13 13 0 0 1-13-12v-125a13 13 0 0 1 13-13h50a13 13 0 0 1 12 13v75h25a13 13 0 0 1 0 25z m-50-88h-25v100h25v-12a13 13 0 0 1 0-25z m88 325h-25a13 13 0 0 1 0-25h25a13 13 0 0 1 0 25z m-250-600h475a13 13 0 0 1 0 25h-13v650a25 25 0 0 1-25 25h-400a25 25 0 0 1-25-25v-650h-12a13 13 0 0 1 0-25z m87 25v600h300v-600z m-50 650h400v-650h-25v600a25 25 0 0 1-25 25h-300a25 25 0 0 1-25-25v-600h-25z" horiz-adv-x="800" />

<glyph glyph-name="noun_user_2652089" unicode="&#xe80c;" d="M750 75h-700a25 25 0 0 0-25 25v114a100 100 0 0 0 79 98l184 40c-61 81-88 176-88 305 0 93 90 168 200 168s200-75 200-168c0-129-27-225-88-305l184-40a100 100 0 0 0 79-98v-114a25 25 0 0 0-25-25z m-675 50h650v89a50 50 0 0 1-39 50l-216 47a30 30 0 0 0-22 19 31 31 0 0 0 6 29c47 55 96 134 96 300 0 63-67 116-150 116s-150-53-150-118c0-165 49-244 97-300a31 31 0 0 0 5-29 30 30 0 0 0-22-19l-215-46a50 50 0 0 1-40-50z" horiz-adv-x="800" />

<glyph glyph-name="noun_home_872955" unicode="&#xe80d;" d="M201 209h61c4 0 8 3 8 8v115c0 5-4 8-8 8h-61c-5 0-8-3-8-8v-115c0-4 3-8 8-8z m8 16v42h45v-42h-45z m45 99v-41h-45v41h45z m51-115h61c4 0 8 3 8 8v115c0 5-4 8-8 8h-61c-5 0-8-3-8-8v-115c0-4 4-8 8-8z m8 16v42h45v-42h-45z m45 99v-41h-44v41h44z m-157 100h61c4 0 8 3 8 8v115c0 5-4 8-8 8h-61c-5 0-8-3-8-8v-115c0-5 3-8 8-8z m8 16v41h45v-41h-45z m45 99v-42h-45v42h45z m51-115h61c4 0 8 3 8 8v115c0 5-4 8-8 8h-61c-5 0-8-3-8-8v-115c0-5 4-8 8-8z m8 16v41h45v-41h-45z m45 99v-42h-44v42h44z m-228 98h4v-499c0-5 3-8 8-8h530c5 0 8 3 8 8v362h8c5 0 8 4 8 8v48c0 5-3 8-8 8h-252v74h4c5 0 8 3 8 8v48c0 5-3 8-8 8h-36v35c0 5-3 8-8 8h-43c-5 0-8-3-8-8v-35h-12v35c0 5-3 8-8 8h-43c-5 0-8-3-8-8v-35h-144c-5 0-8-3-8-8v-48c0-5 4-9 8-9z m458-490h-78v177h78v-177z m76 0h-60v185c0 5-3 8-8 8h-94c-5 0-8-3-8-8v-185h-59v353h229v-353z m17 401v-32h-245v32h245z m-261-401h-270v490h269v-490z m-59 582h27v-27h-27v27z m-71 0h27v-27h-27v27z m-152-43h294v-32h-294v32z" horiz-adv-x="800" />

<glyph glyph-name="noun_home_671841" unicode="&#xe80e;" d="M386 805l-320-240c-6-4-10-12-10-19l0-432c0-13 11-24 24-24l216 0c13 0 24 11 24 24l0 200 160 0 0-200c0-13 11-24 24-24l216 0c13 0 24 11 24 24l0 432c0 7-4 15-9 19l-320 240c-11 7-20 6-29 0z m14-49l296-222 0-396-168 0 0 200c0 13-11 24-24 24l-208 0c-13 0-24-11-24-24l0-200-168 0 0 396z" horiz-adv-x="800" />

<glyph glyph-name="noun_bed_215937" unicode="&#xe80f;" d="M176 705c-12 0-19-11-19-19v-150l-44-131c0-2-1-4-1-6v-184c0-10 10-20 20-20 10 0 19 10 19 20v44h498v-44c0-10 9-20 19-20 11 0 20 10 20 20v184c0 2-1 4-1 6l-44 131v150c0 8-7 19-19 19h-448z m20-39h408v-45c-9 5-20 7-31 7h-122c-20 0-38-8-51-22-13 14-31 22-51 22h-121c-12 0-23-2-32-7v45z m32-76h121c18 0 32-14 32-32v-6h-185v6c0 18 13 32 32 32l0 0z m223 0h122c18 0 31-14 31-32v-6h-185v6c0 18 14 32 32 32l0 0z m-261-76h420l32-96h-484l32 96z m-39-134h498v-83h-498v83z" horiz-adv-x="800" />

<glyph glyph-name="left-open-big" unicode="&#xe810;" d="M452-20q26-26 0-48-26-26-48 0l-392 394q-24 24 0 50l392 394q22 26 48 0 26-22 0-48l-358-372z" horiz-adv-x="465" />

<glyph glyph-name="right-open-big" unicode="&#xe811;" d="M13-20l358 370-358 372q-26 26 0 48 26 26 48 0l392-394q24-26 0-50l-392-394q-22-26-48 0-26 22 0 48z" horiz-adv-x="465" />

<glyph glyph-name="up-open-big" unicode="&#xe812;" d="M804 130l-372 358-370-358q-26-22-50 0-24 24 0 50l396 390q26 26 48 0l396-390q24-26 0-50-26-22-48 0z" horiz-adv-x="864" />

<glyph glyph-name="down-open-big" unicode="&#xe813;" d="M63 570l370-356 372 356q22 26 48 0 26-22 0-48l-396-392q-22-22-48 0l-396 392q-26 26 0 48 24 24 50 0z" horiz-adv-x="866" />
</font>
</defs>
</svg>
